Скачать через торрент Норм и Несокрушимые Norm of the North Фильм бесплатно в хорошем качестве torrent

Скачивайте на UnionPeer.org фильмы через торрент без регистрации. Новинки кино в хорошем качестве через торрент. На UnionPeer.org можно скачать через торрент фильмы 2014 и 2015 годов. Самые новые фильмы.

Скачать торрент Норм и Несокрушимые Norm of the North бесплатно через .torrent фильм мультфильм сериал

Статистика раздачи
Размер:  2.55 GB   |    Зарегистрирован:  2 года 8 месяцев   |    .torrent скачан:  752 раза   |   
Раздают:  1  
   
загрузка...
 
Автор Сообщение

Galfimbul

avatar Galfimbul


Норм и Несокрушимые / Norm of the North

______________________________________«Главный мультфильм весенних каникул»

Страна: Индия, США
Жанр: мультфильм, комедия, приключения, семейный
Продолжительность: 01:30:31
Год выпуска: 2016
Субтитры: отсутствуют

Режиссёр: Тревор Уолл
Роли озвучивали: Роб Шнайдер, Хэзер Грэм, Кен Жонг, Билл Найи, Колм Мини, Лоретта Дивайн, Майкл МакЭлхаттон, Майя Кэй, Габриэль Иглесиас, Салом Дженс

Описание:
Встречайте! Норм и Несокрушимые — добродушный белый медведь и шустрые лемминги. Их миссия — спасти родную Арктику от коварной корпорации. Могущественный босс Мистер Грин задумал построить здесь, среди чистых льдов, город богачей, и пушистый отряд должен дать противнику бой на его территории.

Качество: BDRip 1080p
Формат: MKV

Видео: 1920x1036 (1.853), 23.976 fps, 2921 Kbps, 0.061 Pixel*Frame
Аудио #1: AC-3, 640 Kbps, 6ch - английский
Аудио #2: AC-3, 384 Kbps, 6ch - профессиональный (полное дублирование) [iTunes]

GeneralUnique ID : 250262235762492237789846278221752952016 (0xBC46C0DD8A2C8EE99C2A0351D20FE4D0)Complete name : D:\Норм и Несокрушимые\norm_of_the_north_2016_[rutracker.org].mkvFormat : MatroskaFormat version : Version 4 / Version 2File size : 2.55 GiBDuration : 1h 30mnOverall bit rate : 4 025 KbpsEncoded date : UTC 2016-04-23 11:37:49Writing application : mkvmerge v6.1.0 ('Old Devil') built on Mar 4 2013 09:10:42Writing library : libebml v1.3.0 + libmatroska v1.4.0DURATION : 01:30:31.488000000NUMBER_OF_FRAMES : 169734NUMBER_OF_BYTES : 434519040_STATISTICS_WRITING_APP : mkvmerge v7.7.0 ('Six Voices') 32bit built on Feb 28 2015 23:23:00_STATISTICS_WRITING_DATE_UTC : 2016-04-09 10:46:56_STATISTICS_TAGS : BPS DURATION NUMBER_OF_FRAMES NUMBER_OF_BYTES

VideoID : 1Format : AVCFormat/Info : Advanced Video CodecFormat profile : High@L4.0Format settings, CABAC : YesFormat settings, ReFrames : 4 framesCodec ID : V_MPEG4/ISO/AVCDuration : 1h 30mnBit rate : 2 921 KbpsWidth : 1 920 pixelsHeight : 1 036 pixelsDisplay aspect ratio : 1.853Frame rate : 23.976 fpsColor space : YUVChroma subsampling : 4:2:0Bit depth : 8 bitsScan type : ProgressiveBits/(Pixel*Frame) : 0.061Stream size : 1.85 GiB (73%)Title : ETRGWriting library : x264 core 148 r2665 a01e339Encoding settings : cabac=1 / ref=4 / deblock=0:1:1 / analyse=0x3:0x133 / me=tesa / subme=11 / psy=1 / psy_rd=0.40:0.00 / mixed_ref=1 / me_range=24 / chroma_me=1 / trellis=2 / 8x8dct=1 / cqm=0 / deadzone=21,11 / fast_pskip=0 / chroma_qp_offset=-2 / threads=12 / lookahead_threads=1 / sliced_threads=0 / nr=0 / decimate=1 / interlaced=0 / bluray_compat=0 / constrained_intra=0 / bframes=4 / b_pyramid=2 / b_adapt=2 / b_bias=0 / direct=3 / weightb=1 / open_gop=0 / weightp=2 / keyint=240 / keyint_min=24 / scenecut=40 / intra_refresh=0 / rc_lookahead=60 / rc=crf / mbtree=1 / crf=22.0 / qcomp=0.60 / qpmin=0 / qpmax=69 / qpstep=4 / vbv_maxrate=25000 / vbv_bufsize=25000 / crf_max=0.0 / nal_hrd=none / filler=0 / ip_ratio=1.40 / aq=1:0.60Default : YesForced : No

Audio #1ID : 2Format : AC-3Format/Info : Audio Coding 3Mode extension : CM (complete main)Codec ID : A_AC3Duration : 1h 30mnBit rate mode : ConstantBit rate : 640 KbpsChannel(s) : 6 channelsChannel positions : Front: L C R, Side: L R, LFESampling rate : 48.0 KHzBit depth : 16 bitsCompression mode : LossyStream size : 414 MiB (16%)Title : английскийLanguage : EnglishDefault : NoForced : No

Audio #2ID : 3Format : AC-3Format/Info : Audio Coding 3Mode extension : CM (complete main)Codec ID : A_AC3Duration : 1h 30mnBit rate mode : ConstantBit rate : 384 KbpsChannel(s) : 6 channelsChannel positions : Front: L C R, Side: L R, LFESampling rate : 48.0 KHzBit depth : 16 bitsCompression mode : LossyStream size : 249 MiB (10%)Title : русскийLanguage : RussianDefault : YesForced : No

Menu00:00:00.000 : en:(01)00:00:00:00000:06:52.161 : en:(02)00:06:52:16100:14:10.474 : en:(03)00:14:10:47400:21:09.893 : en:(04)00:21:09:89300:27:25.977 : en:(05)00:27:25:97700:35:50.690 : en:(06)00:35:50:69000:43:51.253 : en:(07)00:43:51:25300:52:15.882 : en:(08)00:52:15:88200:57:42.750 : en:(09)00:57:42:75001:04:43.295 : en:(10)01:04:43:29501:14:42.519 : en:(11)01:14:42:51901:25:29.040 : en:(12)01:25:29:04001:30:31.384 : en:(13)01:30:31:384
_________________


Трекер:  [ 23-Апр-2016 19:30 ]

  

Скачать .torrent

Размер .torrent файла 13 KB


Размер: 2.55 GB
Хэш (hash) релиза: fce28f4129ab83224335576f4ab0083ff5f0753b
Подписка на обновления:

Торренты, похожие на Норм и Несокрушимые Norm of the North скачать торрент

Форум Название Автор Размер S L Добавлен
Мультфильмы до 2016 ·· Норм и Несокрушимые / Norm of the North (Тревор Уолл / Trevor Wall) [2016, Индия, США, мультфильм, комедия, приключения, семейный, WEBRip 720p] (Локализованный видеоряд) DUB (iTunes) + UKR + Original (Eng) + Sub (rus, ukr, eng) Galfimbul 26238170362.44 GB 0 0 1500356190

08:36

18-Июл-17

Мультфильмы до 2016 ·· Норм и Несокрушимые / Norm of the North (Тревор Уолл / Trevor Wall) [2016, Индия, США, мультфильм, комедия, приключения, семейный, BDRip] Dub (iTunes) Galfimbul 780048384744 MB 0 0 1461822895

08:54

28-Апр-16

Мультфильмы до 2016 ·· Норм и Несокрушимые / Norm of the North (Тревор Уолл / Trevor Wall) [2016, Индия, США, мультфильм, комедия, приключения, семейный, BDRip-AVC] DUB (iTunes) + Original (Eng) + Sub (eng) Galfimbul 27730852702.58 GB 0 0 1461792563

00:29

28-Апр-16

Мультфильмы до 2016 ·· Норм и Несокрушимые / Norm of the North (Тревор Уолл) [2016, Индия, США, мультфильм, комедия, приключения, семейный, BDRip 1080p] Dub (iTunes) + Original Eng + Sub Eng Galfimbul 64934004186.05 GB 0 0 1461785094

22:24

27-Апр-16

Мультфильмы до 2016 ·· Норм и Несокрушимые / Norm of the North (Тревор Уолл / Trevor Wall) [2016, Индия, США, мультфильм, комедия, приключения, семейный, BDRip] Dub (iTunes) + Original Eng + Sub Eng Galfimbul 15674520801.46 GB 0 0 1461777736

20:22

27-Апр-16

Мультфильмы до 2016 ·· Норм и Несокрушимые / Norm of the North (Тревор Уолл / Trevor Wall) [2016, Индия, США, мультфильм, комедия, приключения, семейный, BDRip 720p] DUB (iTunes) + Original (Eng) + Sub (eng) Galfimbul 40233623083.75 GB 0 0 1461756879

14:34

27-Апр-16

Мультфильмы до 2016 ·· Норм и Несокрушимые / Norm of the North (Тревор Уолл / Trevor Wall) [2016, Индия, США, мультфильм, комедия, приключения, семейный, BDRemux 1080] DUB (iTunes) + Original (Eng) + Sub (eng) Galfimbul 1419464820413.22 GB 0 0 1461677211

16:26

26-Апр-16

Мультфильмы 2016-2018 (Новинки мультфильмов) ·· Норм и Несокрушимые / Norm of the North (2016) BDRip 720p | iTunes Galfimbul 24113175742.25 GB 0 0 1461445879

00:11

24-Апр-16

Мультфильмы до 2016 ·· Норм и Несокрушимые / Norm of the North (Тревор Уолл / Trevor Wall) [2016, Индия, США, мультфильм, комедия, приключения, семейный, WEB-DL 720p] DUB + Original (Eng) + Sub (eng) Galfimbul 30978830432.89 GB 0 0 1461403393

12:23

23-Апр-16

Мультфильмы до 2016 ·· Норм и Несокрушимые / Norm of the North (Тревор Уолл / Trevor Wall) [2016, Индия, США, мультфильм, комедия, приключения, семейный, WEB-DL 720p] DUB + Original (Eng) + Sub (eng) Galfimbul 30978830442.89 GB 0 0 1459677366

12:56

3-Апр-16

Мультфильмы 2016-2018 (Новинки мультфильмов) ·· Норм и Несокрушимые / Norm of the North (Тревор Уолл) [2016, мультфильм, комедия, приключения, семейный, WEB-DL 720p] Galfimbul 30978704082.89 GB 0 0 1459295104

02:45

30-Мар-16

Еще никто не оставлял запись к записи скачать торрент Норм и Несокрушимые Norm of the North . Будь первым!

!Обратная связь