Скачать через торрент Норм и Несокрушимые Norm of the North Фильм бесплатно в хорошем качестве torrent

Скачивайте на UnionPeer.org фильмы через торрент без регистрации. Новинки кино в хорошем качестве через торрент. На UnionPeer.org можно скачать через торрент фильмы 2014 и 2015 годов. Самые новые фильмы.

Скачать торрент Норм и Несокрушимые Norm of the North бесплатно через .torrent фильм мультфильм сериал

Статистика раздачи
Размер:  3.75 GB   |    Зарегистрирован:  2 года 8 месяцев   |    .torrent скачан:  740 раз   |   
Раздают:  1  
   
загрузка...
 
Автор Сообщение

Galfimbul

avatar Galfimbul


Норм и Несокрушимые
Norm of the North
«Главный мультфильм весенних каникул»
Год выпуска: 2016
Страна: Индия, США
Жанр: мультфильм, комедия, приключения, семейный
Продолжительность: 01:30:31
Перевод: Профессиональный (Дублированный) - iTunes
русские субтитры: нет
Режиссёр: Тревор Уолл : Trevor Wall
Роли озвучивали: Роб Шнайдер, Хэзер Грэм, Кен Жонг, Билл Найи, Колм Мини, Лоретта Дивайн, Майкл МакЭлхаттон, Майя Кэй, Габриэль Иглесиас, Салом Дженс

Роли дублировали: Антон Комолов, Ольга Шелест, Алина Кукушкина, Сергей Чихачев, Николай Дроздов
ОписаниеВстречайте! Норм и Несокрушимые — добродушный белый медведь и шустрые лемминги. Их миссия — спасти родную Арктику от коварной корпорации. Могущественный босс Мистер Грин задумал построить здесь, среди чистых льдов, город богачей, и пушистый отряд должен дать противнику бой на его территории.

Норм и Несокрушимые отправляются прямо в каменные джунгли мегаполиса. Их обаяние, отвага, шутки и танцы — особенно зажигательный «Арктик Шейк» — растопят сердца горожан, но для победы мало просто стать звёздами. Впереди — настоящие испытания и вихрь приключений.
релиз:
Качество: BDRip 720p <a href="viewtopic.php?t=5214592" class="postLink">BDRemux 1080</a> -Azureus-
Формат: MKV
Видео кодек: AVC
Аудио кодек: AC3
Видео: AVC 4784 Kbps 1280 x 692 (1.850) 23.976 fps
Аудио #1: [RUS] 48 kHz, AC3 Dolby Digital, 3/2 (L,C,R,l,r) + LFE ch, ~384 kbps iTunes
Аудио #2: [ENG] AC-3 640 Kbps 6 channels, 48.0 KHz
субтитры: английские
навигация по главам: 11 глав (не именные)
x264 [info]: frame I:1277 Avg QP:12.75 size:134778
x264 [info]: frame P:35511 Avg QP:14.66 size: 45899
x264 [info]: frame B:93436 Avg QP:17.56 size: 16316
x264 [info]: consecutive B-frames: 5.7% 6.5% 15.1% 23.7% 12.6% 30.2% 2.5% 0.9% 1.1% 0.7% 0.9%
x264 [info]: mb I I16..4: 7.7% 64.4% 27.9%
x264 [info]: mb P I16..4: 1.5% 19.0% 4.2% P16..4: 21.0% 21.9% 9.7% 2.2% 0.3% skip:20.1%
x264 [info]: mb B I16..4: 0.3% 3.4% 0.6% B16..8: 24.2% 17.2% 3.5% direct: 5.0% skip:45.7% L0:38.8% L1:44.6% BI:16.5%
x264 [info]: 8x8 transform intra:76.0% inter:55.5%
x264 [info]: direct mvs spatial:99.9% temporal:0.1%
x264 [info]: coded y,uvDC,uvAC intra: 84.2% 83.5% 67.9% inter: 21.2% 18.2% 6.0%
x264 [info]: i16 v,h,dc,p: 24% 20% 5% 52%
x264 [info]: i8 v,h,dc,ddl,ddr,vr,hd,vl,hu: 10% 13% 8% 9% 11% 11% 12% 11% 14%
x264 [info]: i4 v,h,dc,ddl,ddr,vr,hd,vl,hu: 23% 15% 8% 6% 12% 10% 10% 7% 9%
x264 [info]: i8c dc,h,v,p: 34% 33% 18% 15%
x264 [info]: Weighted P-Frames: Y:3.1% UV:2.4%
x264 [info]: ref P L0: 56.4% 9.5% 15.5% 5.6% 4.0% 3.1% 2.4% 1.6% 1.5% 0.4% 0.0%
x264 [info]: ref B L0: 80.5% 9.5% 4.2% 2.1% 1.5% 1.2% 0.7% 0.3%
x264 [info]: ref B L1: 94.0% 6.0%
x264 [info]: kb/s:4899.63

x264 [total]: encoded 130224 frames, 7.33 fps, 4899.63 kb/s, duration 4:55:57.12
Format : Matroska
Format version : Version 4 / Version 2
File size : 3.75 GiB
Duration : 1h 30mn
Overall bit rate : 5 926 Kbps
Encoded date : UTC 2016-04-27 09:56:20
Writing application : mkvmerge v6.7.0 ('Back to the Ground') 32bit built on Jan 8 2014 15:03:17
Writing library : libebml v1.3.0 + libmatroska v1.4.1

Video
ID : 1
Format : AVC
Format/Info : Advanced Video Codec
Format profile : High@L4.1
Format settings, CABAC : Yes
Format settings, ReFrames : 9 frames
Codec ID : V_MPEG4/ISO/AVC
Duration : 1h 30mn
Bit rate : 4 784 Kbps
Width : 1 280 pixels
Height : 692 pixels
Display aspect ratio : 1.85:1
Frame rate mode : Constant
Frame rate : 23.976 (24000/1001) fps
Color space : YUV
Chroma subsampling : 4:2:0
Bit depth : 8 bits
Scan type : Progressive
Bits/(Pixel*Frame) : 0.225
Stream size : 3.03 GiB (81%)
Title : Norm of the North (2016) [rutracker.org] 720p
Writing library : x264 core 148 r2638kMod 7599210
Encoding settings : cabac=1 / ref=9 / deblock=1:-3:-2 / analyse=0x3:0x133 / me=umh / subme=11 / psy=1 / fade_compensate=0.00 / psy_rd=1.00:0.05 / mixed_ref=1 / me_range=48 / chroma_me=1 / trellis=2 / 8x8dct=1 / cqm=0 / deadzone=21,11 / fast_pskip=0 / chroma_qp_offset=-3 / threads=12 / lookahead_threads=3 / sliced_threads=0 / nr=0 / decimate=1 / interlaced=0 / bluray_compat=0 / constrained_intra=0 / fgo=0 / bframes=10 / b_pyramid=2 / b_adapt=2 / b_bias=0 / direct=3 / weightb=1 / open_gop=0 / weightp=2 / keyint=250 / keyint_min=23 / scenecut=40 / intra_refresh=0 / rc_lookahead=60 / rc=crf / mbtree=0 / crf=16.4000 / qcomp=0.60 / qpmin=0 / qpmax=69 / qpstep=4 / vbv_maxrate=50000 / vbv_bufsize=62500 / crf_max=0.0 / nal_hrd=none / filler=0 / ip_ratio=1.40 / pb_ratio=1.30 / aq=3:0.90
Language : English
Default : Yes
Forced : No

Audio #1
ID : 2
Format : AC-3
Format/Info : Audio Coding 3
Mode extension : CM (complete main)
Format settings, Endianness : Big
Codec ID : A_AC3
Duration : 1h 30mn
Bit rate mode : Constant
Bit rate : 384 Kbps
Channel(s) : 6 channels
Channel positions : Front: L C R, Side: L R, LFE
Sampling rate : 48.0 KHz
Frame rate : 31.250 fps (1536 spf)
Compression mode : Lossy
Stream size : 249 MiB (6%)
Title : DUB [iTunes)
Language : Russian
Default : Yes
Forced : No

Audio #2
ID : 3
Format : AC-3
Format/Info : Audio Coding 3
Mode extension : CM (complete main)
Format settings, Endianness : Big
Codec ID : A_AC3
Duration : 1h 30mn
Bit rate mode : Constant
Bit rate : 640 Kbps
Channel(s) : 6 channels
Channel positions : Front: L C R, Side: L R, LFE
Sampling rate : 48.0 KHz
Frame rate : 31.250 fps (1536 spf)
Compression mode : Lossy
Stream size : 414 MiB (11%)
Title : Original
Language : English
Default : No
Forced : No

Text #1
ID : 4
Format : UTF-8
Codec ID : S_TEXT/UTF8
Codec ID/Info : UTF-8 Plain Text
Title : Full
Language : English
Default : No
Forced : No

Text #2
ID : 5
Format : UTF-8
Codec ID : S_TEXT/UTF8
Codec ID/Info : UTF-8 Plain Text
Title : SDH
Language : English
Default : No
Forced : No

Menu
00:00:00.000 : en:00:00:00.000
00:06:52.162 : en:00:06:52.162
00:14:10.475 : en:00:14:10.475
00:21:09.894 : en:00:21:09.894
00:27:25.978 : en:00:27:25.978
00:35:50.690 : en:00:35:50.690
00:43:51.254 : en:00:43:51.254
00:52:15.883 : en:00:52:15.883
00:57:42.751 : en:00:57:42.751
01:04:43.296 : en:01:04:43.296
01:14:42.520 : en:01:14:42.520
01:25:29.040 : en:01:25:29.040


Трекер:  [ 27-Апр-2016 13:30 ]

  

Скачать .torrent

Размер .torrent файла 25 KB


Размер: 3.75 GB
Хэш (hash) релиза: c3e3780ef429f447e858e7caacb36c1eb002574e
Подписка на обновления:

Торренты, похожие на Норм и Несокрушимые Norm of the North скачать торрент

Форум Название Автор Размер S L Добавлен
Мультфильмы до 2016 ·· Норм и Несокрушимые / Norm of the North (Тревор Уолл / Trevor Wall) [2016, Индия, США, мультфильм, комедия, приключения, семейный, WEBRip 720p] (Локализованный видеоряд) DUB (iTunes) + UKR + Original (Eng) + Sub (rus, ukr, eng) Galfimbul 26238170362.44 GB 0 0 1500356190

08:36

18-Июл-17

Мультфильмы до 2016 ·· Норм и Несокрушимые / Norm of the North (Тревор Уолл / Trevor Wall) [2016, Индия, США, мультфильм, комедия, приключения, семейный, BDRip] Dub (iTunes) Galfimbul 780048384744 MB 0 0 1461822895

08:54

28-Апр-16

Мультфильмы до 2016 ·· Норм и Несокрушимые / Norm of the North (Тревор Уолл / Trevor Wall) [2016, Индия, США, мультфильм, комедия, приключения, семейный, BDRip-AVC] DUB (iTunes) + Original (Eng) + Sub (eng) Galfimbul 27730852702.58 GB 0 0 1461792563

00:29

28-Апр-16

Мультфильмы до 2016 ·· Норм и Несокрушимые / Norm of the North (Тревор Уолл) [2016, Индия, США, мультфильм, комедия, приключения, семейный, BDRip 1080p] Dub (iTunes) + Original Eng + Sub Eng Galfimbul 64934004186.05 GB 0 0 1461785094

22:24

27-Апр-16

Мультфильмы до 2016 ·· Норм и Несокрушимые / Norm of the North (Тревор Уолл / Trevor Wall) [2016, Индия, США, мультфильм, комедия, приключения, семейный, BDRip] Dub (iTunes) + Original Eng + Sub Eng Galfimbul 15674520801.46 GB 0 0 1461777736

20:22

27-Апр-16

Мультфильмы до 2016 ·· Норм и Несокрушимые / Norm of the North (Тревор Уолл / Trevor Wall) [2016, Индия, США, мультфильм, комедия, приключения, семейный, BDRemux 1080] DUB (iTunes) + Original (Eng) + Sub (eng) Galfimbul 1419464820413.22 GB 0 0 1461677211

16:26

26-Апр-16

Мультфильмы 2016-2018 (Новинки мультфильмов) ·· Норм и Несокрушимые / Norm of the North (2016) BDRip 720p | iTunes Galfimbul 24113175742.25 GB 0 0 1461445879

00:11

24-Апр-16

Мультфильмы до 2016 ·· Норм и Несокрушимые / Norm of the North (Тревор Уолл) [2016, Индия, США, мультфильм, комедия, приключения, семейный, BDRip 1080p] DUB + Original (Eng) Galfimbul 27327173302.55 GB 0 0 1461432701

20:31

23-Апр-16

Мультфильмы до 2016 ·· Норм и Несокрушимые / Norm of the North (Тревор Уолл / Trevor Wall) [2016, Индия, США, мультфильм, комедия, приключения, семейный, WEB-DL 720p] DUB + Original (Eng) + Sub (eng) Galfimbul 30978830432.89 GB 0 0 1461403393

12:23

23-Апр-16

Мультфильмы до 2016 ·· Норм и Несокрушимые / Norm of the North (Тревор Уолл / Trevor Wall) [2016, Индия, США, мультфильм, комедия, приключения, семейный, WEB-DL 720p] DUB + Original (Eng) + Sub (eng) Galfimbul 30978830442.89 GB 0 0 1459677366

12:56

3-Апр-16

Мультфильмы 2016-2018 (Новинки мультфильмов) ·· Норм и Несокрушимые / Norm of the North (Тревор Уолл) [2016, мультфильм, комедия, приключения, семейный, WEB-DL 720p] Galfimbul 30978704082.89 GB 0 0 1459295104

02:45

30-Мар-16

Еще никто не оставлял запись к записи скачать торрент Норм и Несокрушимые Norm of the North . Будь первым!

!Обратная связь