Скачать через торрент Норм и Несокрушимые Norm of the North Фильм бесплатно в хорошем качестве torrent

Скачивайте на UnionPeer.org фильмы через торрент без регистрации. Новинки кино в хорошем качестве через торрент. На UnionPeer.org можно скачать через торрент фильмы 2014 и 2015 годов. Самые новые фильмы.

Скачать торрент Норм и Несокрушимые Norm of the North бесплатно через .torrent фильм мультфильм сериал

Статистика раздачи
Размер:  6.05 GB   |    Зарегистрирован:  2 года 8 месяцев   |    .torrent скачан:  794 раза   |   
Раздают:  1  
   
загрузка...
 
Автор Сообщение

Galfimbul

avatar Galfimbul


___________________________________Норм и Несокрушимые / Norm of the North

_________________________________________- Главный мультфильм весенних каникул -
Страна: Индия, США
Жанр: мультфильм, комедия, приключения, семейный
Продолжительность: 01:30:31
Год выпуска: 2016
Перевод: Профессиональный (дублированный) - [iTunes]
Русские субтитры: отсутствуют
Субтитры: Румынские, английские

Режиссёр: Тревор Уолл

Роли озвучивали: Роб Шнайдер, Хэзер Грэм, Кен Жонг, Билл Найи, Колм Мини, Лоретта Дивайн, Майкл МакЭлхаттон, Майя Кэй, Габриэль Иглесиас, Салом Дженс

Описание: Встречайте! Норм и Несокрушимые — добродушный белый медведь и шустрые лемминги. Их миссия — спасти родную Арктику от коварной корпорации. Могущественный босс Мистер Грин задумал построить здесь, среди чистых льдов, город богачей, и пушистый отряд должен дать противнику бой на его территории.
Норм и Несокрушимые отправляются прямо в каменные джунгли мегаполиса. Их обаяние, отвага, шутки и танцы — особенно зажигательный «Арктик Шейк» — растопят сердца горожан, но для победы мало просто стать звёздами. Впереди — настоящие испытания и вихрь приключений.

Качество: BDRip 1080p
Формат: MKV

Видео: 1920x1038 (1.850), 23.976 fps, 8 350 Kbps, 0.175 Pixel*Frame
Аудио #1: AC-3, 384 Kbps, 6ch (русский)
Аудио #2: AC-3, 640 Kbps, 6ch (английский)



Трейлер к фильму
GeneralUnique ID : 189061276435168603575977409283389189696 (0x8E3BE09ABBF40FDB954F2757CD10EE40)Complete name : D:\загрузка\Норм и Несокрушимые - Norm of the North (2016)_1080.mkvFormat : MatroskaFormat version : Version 4 / Version 2File size : 6.05 GiBDuration : 1h 30mnOverall bit rate : 9 564 KbpsMovie name : released by aldershotEncoded date : UTC 2016-04-23 07:28:29Writing application : mkvmerge v6.9.1 ('Blue Panther') 64bit built on Apr 18 2014 18:23:38Writing library : libebml v1.3.0 + libmatroska v1.4.1

VideoID : 1Format : AVCFormat/Info : Advanced Video CodecFormat profile : High@L4.1Format settings, CABAC : YesFormat settings, ReFrames : 4 framesCodec ID : V_MPEG4/ISO/AVCDuration : 1h 30mnBit rate : 8 350 KbpsWidth : 1 920 pixelsHeight : 1 038 pixelsDisplay aspect ratio : 1.850Frame rate : 23.976 fpsColor space : YUVChroma subsampling : 4:2:0Bit depth : 8 bitsScan type : ProgressiveBits/(Pixel*Frame) : 0.175Stream size : 5.28 GiB (87%)Title : ViSUMWriting library : x264 core 148 r2638+53 bb29004 t_mod_Custom [8-bit@all X86_64]Encoding settings : cabac=1 / ref=4 / deblock=1:-2:-2 / analyse=0x3:0x113 / me=umh / subme=11 / psy=1 / fade_compensate=0.00 / psy_rd=0.75:0.00 / mixed_ref=1 / me_range=32 / chroma_me=1 / trellis=2 / 8x8dct=1 / cqm=0 / deadzone=21,11 / fast_pskip=1 / chroma_qp_offset=-2 / threads=12 / lookahead_threads=2 / sliced_threads=0 / nr=0 / decimate=1 / interlaced=0 / bluray_compat=0 / constrained_intra=0 / fgo=0 / bframes=8 / b_pyramid=2 / b_adapt=2 / b_bias=0 / direct=3 / weightb=1 / open_gop=0 / weightp=2 / keyint=240 / keyint_min=23 / scenecut=40 / intra_refresh=0 / rc_lookahead=50 / rc=crf / mbtree=0 / crf=17.5000 / qcomp=0.60 / qpmin=0:0:0 / qpmax=69:69:69 / qpstep=4 / vbv_maxrate=62500 / vbv_bufsize=78125 / crf_max=0.0 / nal_hrd=none / filler=0 / ip_ratio=1.40 / pb_ratio=1.30 / aq=3:0.75 / aq-sensitivity=10.00 / aq-factor=1.00:1.00:1.00 / aq2=0 / aq3=0Language : EnglishDefault : YesForced : No

Audio #1ID : 2Format : AC-3Format/Info : Audio Coding 3Mode extension : CM (complete main)Codec ID : A_AC3Duration : 1h 30mnBit rate mode : ConstantBit rate : 384 KbpsChannel(s) : 6 channelsChannel positions : Front: L C R, Side: L R, LFESampling rate : 48.0 KHzBit depth : 16 bitsCompression mode : LossyStream size : 249 MiB (4%)Title : AC3 5.1 @ 384 Kbps, Дубляж, iTunesLanguage : RussianDefault : YesForced : No

Audio #2ID : 3Format : AC-3Format/Info : Audio Coding 3Mode extension : CM (complete main)Codec ID : A_AC3Duration : 1h 30mnBit rate mode : ConstantBit rate : 640 KbpsChannel(s) : 6 channelsChannel positions : Front: L C R, Side: L R, LFESampling rate : 48.0 KHzBit depth : 16 bitsCompression mode : LossyStream size : 414 MiB (7%)Title : AC3 5.1 @ 640 Kbps, OriginalLanguage : EnglishDefault : NoForced : No

Text #1ID : 4Format : UTF-8Codec ID : S_TEXT/UTF8Codec ID/Info : UTF-8 Plain TextTitle : fullLanguage : RomanianDefault : NoForced : No

Text #2ID : 5Format : UTF-8Codec ID : S_TEXT/UTF8Codec ID/Info : UTF-8 Plain TextTitle : fullLanguage : EnglishDefault : NoForced : No

Text #3ID : 6Format : UTF-8Codec ID : S_TEXT/UTF8Codec ID/Info : UTF-8 Plain TextTitle : SDHLanguage : EnglishDefault : NoForced : No

Menu00:00:00.000 : en:00:00:00.00000:06:52.162 : en:00:06:52.16200:14:10.475 : en:00:14:10.47500:21:09.894 : en:00:21:09.89400:27:25.978 : en:00:27:25.97800:35:50.690 : en:00:35:50.69000:43:51.254 : en:00:43:51.25400:52:15.883 : en:00:52:15.88300:57:42.751 : en:00:57:42.75101:04:43.296 : en:01:04:43.29601:14:42.520 : en:01:14:42.52001:25:29.040 : en:01:25:29.040


Трекер:  [ 27-Апр-2016 21:30 ]

  

Скачать .torrent

Размер .torrent файла 30 KB


Размер: 6.05 GB
Хэш (hash) релиза: ebc6b30da7a3e521c8e0edfcde3c9580107edbbb
Подписка на обновления:

Торренты, похожие на Норм и Несокрушимые Norm of the North скачать торрент

Форум Название Автор Размер S L Добавлен
Мультфильмы до 2016 ·· Норм и Несокрушимые / Norm of the North (Тревор Уолл / Trevor Wall) [2016, Индия, США, мультфильм, комедия, приключения, семейный, WEBRip 720p] (Локализованный видеоряд) DUB (iTunes) + UKR + Original (Eng) + Sub (rus, ukr, eng) Galfimbul 26238170362.44 GB 0 0 1500356190

08:36

18-Июл-17

Мультфильмы до 2016 ·· Норм и Несокрушимые / Norm of the North (Тревор Уолл / Trevor Wall) [2016, Индия, США, мультфильм, комедия, приключения, семейный, BDRip] Dub (iTunes) Galfimbul 780048384744 MB 0 0 1461822895

08:54

28-Апр-16

Мультфильмы до 2016 ·· Норм и Несокрушимые / Norm of the North (Тревор Уолл / Trevor Wall) [2016, Индия, США, мультфильм, комедия, приключения, семейный, BDRip-AVC] DUB (iTunes) + Original (Eng) + Sub (eng) Galfimbul 27730852702.58 GB 0 0 1461792563

00:29

28-Апр-16

Мультфильмы до 2016 ·· Норм и Несокрушимые / Norm of the North (Тревор Уолл / Trevor Wall) [2016, Индия, США, мультфильм, комедия, приключения, семейный, BDRip] Dub (iTunes) + Original Eng + Sub Eng Galfimbul 15674520801.46 GB 0 0 1461777736

20:22

27-Апр-16

Мультфильмы до 2016 ·· Норм и Несокрушимые / Norm of the North (Тревор Уолл / Trevor Wall) [2016, Индия, США, мультфильм, комедия, приключения, семейный, BDRip 720p] DUB (iTunes) + Original (Eng) + Sub (eng) Galfimbul 40233623083.75 GB 0 0 1461756879

14:34

27-Апр-16

Мультфильмы до 2016 ·· Норм и Несокрушимые / Norm of the North (Тревор Уолл / Trevor Wall) [2016, Индия, США, мультфильм, комедия, приключения, семейный, BDRemux 1080] DUB (iTunes) + Original (Eng) + Sub (eng) Galfimbul 1419464820413.22 GB 0 0 1461677211

16:26

26-Апр-16

Мультфильмы 2016-2018 (Новинки мультфильмов) ·· Норм и Несокрушимые / Norm of the North (2016) BDRip 720p | iTunes Galfimbul 24113175742.25 GB 0 0 1461445879

00:11

24-Апр-16

Мультфильмы до 2016 ·· Норм и Несокрушимые / Norm of the North (Тревор Уолл) [2016, Индия, США, мультфильм, комедия, приключения, семейный, BDRip 1080p] DUB + Original (Eng) Galfimbul 27327173302.55 GB 0 0 1461432701

20:31

23-Апр-16

Мультфильмы до 2016 ·· Норм и Несокрушимые / Norm of the North (Тревор Уолл / Trevor Wall) [2016, Индия, США, мультфильм, комедия, приключения, семейный, WEB-DL 720p] DUB + Original (Eng) + Sub (eng) Galfimbul 30978830432.89 GB 0 0 1461403393

12:23

23-Апр-16

Мультфильмы до 2016 ·· Норм и Несокрушимые / Norm of the North (Тревор Уолл / Trevor Wall) [2016, Индия, США, мультфильм, комедия, приключения, семейный, WEB-DL 720p] DUB + Original (Eng) + Sub (eng) Galfimbul 30978830442.89 GB 0 0 1459677366

12:56

3-Апр-16

Мультфильмы 2016-2018 (Новинки мультфильмов) ·· Норм и Несокрушимые / Norm of the North (Тревор Уолл) [2016, мультфильм, комедия, приключения, семейный, WEB-DL 720p] Galfimbul 30978704082.89 GB 0 0 1459295104

02:45

30-Мар-16

Еще никто не оставлял запись к записи скачать торрент Норм и Несокрушимые Norm of the North . Будь первым!

!Обратная связь