Скачать через торрент Норм и Несокрушимые Norm of the North Фильм бесплатно в хорошем качестве torrent

Скачивайте на UnionPeer.org фильмы через торрент без регистрации. Новинки кино в хорошем качестве через торрент. На UnionPeer.org можно скачать через торрент фильмы 2014 и 2015 годов. Самые новые фильмы.

Скачать торрент Норм и Несокрушимые Norm of the North бесплатно через .torrent фильм мультфильм сериал

Статистика раздачи
Размер:  2.44 GB   |    Зарегистрирован:  1 год 6 месяцев   |    .torrent скачан:  59 раз   |   
Раздают:  1  
   
загрузка...
 
Автор Сообщение

Galfimbul

avatar Galfimbul


Норм и Несокрушимые : Norm of the North«Главный мультфильм весенних каникул»
Год выпуска: 2016
Страна: Индия, США
Жанр: мультфильм, комедия, приключения, семейный
Продолжительность: 01:26:39
Перевод: Профессиональный (Дублированный) - iTunes
русские субтитры: естьРежиссёр: Тревор Уолл : Trevor WallРоли озвучивали: Роб Шнайдер, Хэзер Грэм, Кен Жонг, Билл Найи, Колм Мини, Лоретта Дивайн, Майкл МакЭлхаттон, Майя Кэй, Габриэль Иглесиас, Салом Дженс

Роли дублировали: Антон Комолов, Ольга Шелест, Алина Кукушкина, Сергей Чихачев, Николай ДроздовОписание: Встречайте! Норм и Несокрушимые — добродушный белый медведь и шустрые лемминги. Их миссия — спасти родную Арктику от коварной корпорации. Могущественный босс Мистер Грин задумал построить здесь, среди чистых льдов, город богачей, и пушистый отряд должен дать противнику бой на его территории.

Норм и Несокрушимые отправляются прямо в каменные джунгли мегаполиса. Их обаяние, отвага, шутки и танцы — особенно зажигательный «Арктик Шейк» — растопят сердца горожан, но для победы мало просто стать звёздами. Впереди — настоящие испытания и вихрь приключений. релиз: - За работу со звуком большое спасибо Нордер
- Работа с WEB-DL'ом -Azureus-Качество: WEBRip 720p
Формат: MKV
Видео кодек: AVC
Аудио кодек: AC3, AAC
Видео: 1280x664, 25 fps, ~2 569 kbps avg, 0.121 bit/pixel
Аудио #1: [RUS] 48 kHz, AC3 Dolby Digital, 3/2 (L,C,R,l,r) + LFE ch, ~384 kbps
Аудио #2: [RUS] 48 kHz, AC3 Dolby Digital, 2/0 (L,R) ch, ~192 kbps avg
Аудио #3: [UKR] 48 kHz, AC3 Dolby Digital, 2/0 (L,R) ch, ~192 kbps avg
Аудио #4: [ENG] 48 kHz, AC3 Dolby Digital, 3/2 (L,C,R,l,r) + LFE ch, ~640 kbps
субтитры: русские, украинские, английские
General
Unique ID : 173540492645026180590292925537532108847 (0x828EAEE1ED62F33097C79E17A535E02F)
Complete name : D:\Mult\Norm\Norm of the North.2016.WEBRip 720p.mkv
Format : Matroska
Format version : Version 4 / Version 2
File size : 2.44 GiB
Duration : 1 h 26 min
Overall bit rate : 4 037 kb/s
Movie name : Norm of the North.2016.WEBRip 720p -Azureus-
Encoded date : UTC 2017-07-17 20:23:58
Writing application : mkvmerge v13.0.0 ('The Juggler') 64bit
Writing library : libebml v1.3.4 + libmatroska v1.4.5

Video
ID : 1
Format : AVC
Format/Info : Advanced Video Codec
Format profile : High@L4
Format settings, CABAC : Yes
Format settings, ReFrames : 4 frames
Format settings, GOP : M=7, N=50
Codec ID : V_MPEG4/ISO/AVC
Duration : 1 h 26 min
Bit rate : 2 569 kb/s
Width : 1 280 pixels
Height : 664 pixels
Display aspect ratio : 1.928
Frame rate mode : Constant
Frame rate : 25.000 FPS
Color space : YUV
Chroma subsampling : 4:2:0
Bit depth : 8 bits
Scan type : Progressive
Bits/(Pixel*Frame) : 0.121
Stream size : 1.55 GiB (63%)
Writing library : x264 core 142
Encoding settings : cabac=1 / ref=3 / deblock=1:0:0 / analyse=0x3:0x113 / me=hex / subme=7 / psy=1 / psy_rd=1.00:0.00 / mixed_ref=1 / me_range=16 / chroma_me=1 / trellis=1 / 8x8dct=1 / cqm=0 / deadzone=21,11 / fast_pskip=1 / chroma_qp_offset=-2 / threads=84 / lookahead_threads=5 / sliced_threads=0 / nr=0 / decimate=1 / interlaced=0 / bluray_compat=0 / constrained_intra=0 / bframes=6 / b_pyramid=2 / b_adapt=1 / b_bias=0 / direct=1 / weightb=1 / open_gop=0 / weightp=2 / keyint=50 / keyint_min=26 / scenecut=0 / intra_refresh=0 / rc_lookahead=40 / rc=2pass / mbtree=1 / bitrate=2569 / ratetol=1.0 / qcomp=0.60 / qpmin=0 / qpmax=69 / qpstep=4 / cplxblur=20.0 / qblur=0.5 / vbv_maxrate=3854 / vbv_bufsize=10279 / nal_hrd=none / filler=0 / ip_ratio=1.40 / aq=1:1.00
Language : Russian
Default : Yes
Forced : No

Audio #1
ID : 2
Format : AC-3
Format/Info : Audio Coding 3
Mode extension : CM (complete main)
Format settings, Endianness : Big
Codec ID : A_AC3
Duration : 1 h 26 min
Bit rate mode : Constant
Bit rate : 384 kb/s
Channel(s) : 6 channels
Channel positions : Front: L C R, Side: L R, LFE
Sampling rate : 48.0 kHz
Frame rate : 31.250 FPS (1536 spf)
Compression mode : Lossy
Stream size : 238 MiB (10%)
Title : DUB - iTunes
Language : Russian
Default : Yes
Forced : No

Audio #2
ID : 3
Format : AAC
Format/Info : Advanced Audio Codec
Format profile : LC
Codec ID : A_AAC
Duration : 1 h 26 min
Bit rate : 256 kb/s
Channel(s) : 2 channels
Channel positions : Front: L R
Sampling rate : 48.0 kHz
Frame rate : 46.875 FPS (1024 spf)
Compression mode : Lossy
Stream size : 159 MiB (6%)
Title : DUB - WEB
Language : Russian
Default : No
Forced : No

Audio #3
ID : 4
Format : AC-3
Format/Info : Audio Coding 3
Mode extension : CM (complete main)
Format settings, Endianness : Big
Codec ID : A_AC3
Duration : 1 h 26 min
Bit rate mode : Constant
Bit rate : 192 kb/s
Channel(s) : 2 channels
Channel positions : Front: L R
Sampling rate : 48.0 kHz
Frame rate : 31.250 FPS (1536 spf)
Compression mode : Lossy
Stream size : 119 MiB (5%)
Title : UKR
Language : Ukrainian
Default : No
Forced : No

Audio #4
ID : 5
Format : AC-3
Format/Info : Audio Coding 3
Mode extension : CM (complete main)
Format settings, Endianness : Big
Codec ID : A_AC3
Duration : 1 h 26 min
Bit rate mode : Constant
Bit rate : 640 kb/s
Channel(s) : 6 channels
Channel positions : Front: L C R, Side: L R, LFE
Sampling rate : 48.0 kHz
Frame rate : 31.250 FPS (1536 spf)
Compression mode : Lossy
Stream size : 397 MiB (16%)
Title : ENG
Language : English
Default : No
Forced : No

Text #1
ID : 6
Format : UTF-8
Codec ID : S_TEXT/UTF8
Codec ID/Info : UTF-8 Plain Text
Duration : 1 h 20 min
Bit rate : 101 b/s
Count of elements : 1567
Stream size : 60.0 KiB (0%)
Title : Rus Sub- full
Language : Russian
Default : No
Forced : No

Text #2
ID : 7
Format : UTF-8
Codec ID : S_TEXT/UTF8
Codec ID/Info : UTF-8 Plain Text
Duration : 1 h 20 min
Bit rate : 101 b/s
Count of elements : 1568
Stream size : 59.8 KiB (0%)
Title : Ukr Sub - full
Language : Ukrainian
Default : No
Forced : No

Text #3
ID : 8
Format : UTF-8
Codec ID : S_TEXT/UTF8
Codec ID/Info : UTF-8 Plain Text
Duration : 1 h 22 min
Bit rate : 70 b/s
Count of elements : 1293
Stream size : 42.4 KiB (0%)
Title : Eng Sub - SDH
Language : English
Default : No
Forced : No


Трекер:  [ 18-Июл-2017 08:36 ]

  

Скачать .torrent

Размер .torrent файла 12 KB


Размер: 2.44 GB
Хэш (hash) релиза: a6de218d4f8336f3d195c34a1b98ca8882268414
Подписка на обновления:

Торренты, похожие на Норм и Несокрушимые Norm of the North скачать торрент

Форум Название Автор Размер S L Добавлен
Мультфильмы до 2016 ·· Норм и Несокрушимые / Norm of the North (Тревор Уолл / Trevor Wall) [2016, Индия, США, мультфильм, комедия, приключения, семейный, BDRip] Dub (iTunes) Galfimbul 780048384744 MB 0 0 1461822895

08:54

28-Апр-16

Мультфильмы до 2016 ·· Норм и Несокрушимые / Norm of the North (Тревор Уолл / Trevor Wall) [2016, Индия, США, мультфильм, комедия, приключения, семейный, BDRip-AVC] DUB (iTunes) + Original (Eng) + Sub (eng) Galfimbul 27730852702.58 GB 0 0 1461792563

00:29

28-Апр-16

Мультфильмы до 2016 ·· Норм и Несокрушимые / Norm of the North (Тревор Уолл) [2016, Индия, США, мультфильм, комедия, приключения, семейный, BDRip 1080p] Dub (iTunes) + Original Eng + Sub Eng Galfimbul 64934004186.05 GB 0 0 1461785094

22:24

27-Апр-16

Мультфильмы до 2016 ·· Норм и Несокрушимые / Norm of the North (Тревор Уолл / Trevor Wall) [2016, Индия, США, мультфильм, комедия, приключения, семейный, BDRip] Dub (iTunes) + Original Eng + Sub Eng Galfimbul 15674520801.46 GB 0 0 1461777736

20:22

27-Апр-16

Мультфильмы до 2016 ·· Норм и Несокрушимые / Norm of the North (Тревор Уолл / Trevor Wall) [2016, Индия, США, мультфильм, комедия, приключения, семейный, BDRip 720p] DUB (iTunes) + Original (Eng) + Sub (eng) Galfimbul 40233623083.75 GB 0 0 1461756879

14:34

27-Апр-16

Мультфильмы до 2016 ·· Норм и Несокрушимые / Norm of the North (Тревор Уолл / Trevor Wall) [2016, Индия, США, мультфильм, комедия, приключения, семейный, BDRemux 1080] DUB (iTunes) + Original (Eng) + Sub (eng) Galfimbul 1419464820413.22 GB 0 0 1461677211

16:26

26-Апр-16

Мультфильмы 2016-2018 (Новинки мультфильмов) ·· Норм и Несокрушимые / Norm of the North (2016) BDRip 720p | iTunes Galfimbul 24113175742.25 GB 0 0 1461445879

00:11

24-Апр-16

Мультфильмы до 2016 ·· Норм и Несокрушимые / Norm of the North (Тревор Уолл) [2016, Индия, США, мультфильм, комедия, приключения, семейный, BDRip 1080p] DUB + Original (Eng) Galfimbul 27327173302.55 GB 0 0 1461432701

20:31

23-Апр-16

Мультфильмы до 2016 ·· Норм и Несокрушимые / Norm of the North (Тревор Уолл / Trevor Wall) [2016, Индия, США, мультфильм, комедия, приключения, семейный, WEB-DL 720p] DUB + Original (Eng) + Sub (eng) Galfimbul 30978830432.89 GB 0 0 1461403393

12:23

23-Апр-16

Мультфильмы до 2016 ·· Норм и Несокрушимые / Norm of the North (Тревор Уолл / Trevor Wall) [2016, Индия, США, мультфильм, комедия, приключения, семейный, WEB-DL 720p] DUB + Original (Eng) + Sub (eng) Galfimbul 30978830442.89 GB 0 0 1459677366

12:56

3-Апр-16

Мультфильмы 2016-2018 (Новинки мультфильмов) ·· Норм и Несокрушимые / Norm of the North (Тревор Уолл) [2016, мультфильм, комедия, приключения, семейный, WEB-DL 720p] Galfimbul 30978704082.89 GB 0 0 1459295104

02:45

30-Мар-16

Еще никто не оставлял запись к записи скачать торрент Норм и Несокрушимые Norm of the North . Будь первым!

!Обратная связь