Скачать через торрент Несокрушимый Фильм бесплатно в хорошем качестве torrent

Скачивайте на UnionPeer.org фильмы через торрент без регистрации. Новинки кино в хорошем качестве через торрент. На UnionPeer.org можно скачать через торрент фильмы 2014 и 2015 годов. Самые новые фильмы.

Скачать торрент Несокрушимый бесплатно через .torrent фильм мультфильм сериал

Статистика раздачи
Размер:  1.46 GB   |    Зарегистрирован:  1 месяц 8 дней   |    .torrent скачан:  202 раза   |   
Раздают:  1  
   
загрузка...
 
Автор Сообщение

Galfimbul

avatar Galfimbul


Несокрушимый



Год выпуска: 2018
Страна: Россия
Производство: ПимановФильм
Жанр: Военный, история, драма, рельные события
Режиссёр: Константин Максимов
В ролях: Андрей Чернышов, Владимир Епифанцев, Олег Фомин, Ольга Погодина, Сергей Горобченко, Николай Добрынин, Василий Седых, Владимир Кочетков, Дмитрий Золотухин, Олег Чудницов
Перевод: Оригинал | [iTunes]
Субтитры: Нет
Реклама: Отсутствует

Описание: В основе фильма реальная история уникального подвига экипажа танка «КВ-1». Приняв неравный бой, экипаж Семена Коновалова уничтожил 16 танков, 2 бронемашины и 8 автомашин с живой силой противника в районе хутора Нижнемитякин Тарасовского района Ростовской области. Это история не плакатных героев, а разбитных, веселых, очень разных парней, которые просто хотели жить, но в решающую минуту сумели принять единственно верное решение и совершить подвиг достойный легенды.

Качество: WEB-DLRip-AVC | |
Продолжительность: 01:29:34

Формат: MKV
Видео кодек: MPEG-4 AVC
Аудио кодек: AC3
Видео: 1024x428 (2.40:1), 24,000 fps, x264 ~1 947 kbps avg, 0.185 bit/pixel
Аудио #1: 48 kHz, AC3 Dolby Digital, 3/2 (L,C,R,l,r) + LFE ch, ~384.00 kbps avg | RUS (iTunes)
Дата премьеры (мир):
Дата премьеры (РФ): 25 октября 2018, «Двадцатый Век Фокс СНГ»
Цифровой релиз: 14 декабря 2018, «All media»
Общее
Уникальный идентификатор : 225171378253481157479870345718809415291 (0xA9666E14766409EAB81D329EEEA6CE7B)
Полное имя : F:OlLanDGroupNesokrushimyi.2018.WEB-DLRip(AVC).OlLanDGroup.mkv
Формат : Matroska
Версия формата : Version 4 / Version 2
Размер файла : 1,46 Гбайт
Продолжительность : 1 ч. 29 м.
Общий поток : 2333 Кбит/сек
Название фильма : Nesokrushimyi.2018 #TorpedoUK#
Дата кодирования : UTC 2018-12-15 06:20:28
Программа кодирования : mkvmerge v29.0.0 ('Like It Or Not') 64-bit
Библиотека кодирования : libebml v1.3.6 + libmatroska v1.4.9

Видео
Идентификатор : 1
Формат : AVC
Формат/Информация : Advanced Video Codec
Профиль формата : High@L4.1
Параметр CABAC формата : Да
Параметр ReFrames формата : 10 кадров
Идентификатор кодека : V_MPEG4/ISO/AVC
Продолжительность : 1 ч. 29 м.
Битрейт : 1947 Кбит/сек
Ширина : 1024 пикселя
Высота : 428 пикселей
Соотношение сторон : 2,40:1
Режим частоты кадров : Постоянный
Частота кадров : 24,000 кадра/сек
Цветовое пространство : YUV
Субдискретизация насыщенности : 4:2:0
Битовая глубина : 8 бит
Тип развёртки : Прогрессивная
Бит/(Пиксели*Кадры) : 0.185
Размер потока : 1,22 Гбайт (83%)
Библиотека кодирования : x264 core 146 r2538 121396c
Настройки программы : cabac=1 / ref=10 / deblock=1:-2:-3 / analyse=0x3:0x113 / me=umh / subme=10 / psy=1 / psy_rd=0.95:0.07 / mixed_ref=1 / me_range=48 / chroma_me=1 / trellis=2 / 8x8dct=1 / cqm=0 / deadzone=21,11 / fast_pskip=1 / chroma_qp_offset=-3 / threads=6 / lookahead_threads=1 / sliced_threads=0 / nr=0 / decimate=1 / interlaced=0 / bluray_compat=0 / constrained_intra=0 / bframes=11 / b_pyramid=2 / b_adapt=2 / b_bias=0 / direct=3 / weightb=1 / open_gop=0 / weightp=2 / keyint=240 / keyint_min=24 / scenecut=40 / intra_refresh=0 / rc_lookahead=40 / rc=2pass / mbtree=0 / bitrate=1947 / ratetol=1.0 / qcomp=0.60 / qpmin=0 / qpmax=69 / qpstep=4 / cplxblur=20.0 / qblur=0.5 / vbv_maxrate=50000 / vbv_bufsize=62500 / nal_hrd=none / filler=0 / ip_ratio=1.40 / pb_ratio=1.30 / aq=1:1.00
Default : Да
Forced : Нет

Аудио
Идентификатор : 2
Формат : AC-3
Формат/Информация : Audio Coding 3
Расширение режима : CM (complete main)
Параметр Endianness формата : Big
Идентификатор кодека : A_AC3
Продолжительность : 1 ч. 29 м.
Вид битрейта : Постоянный
Битрейт : 384 Кбит/сек
Каналы : 6 каналов
Расположение каналов : Front: L C R, Side: L R, LFE
Частота : 48,0 КГц
Частота кадров : 31,250 кадров/сек (1536 spf)
Битовая глубина : 16 бит
Метод сжатия : С потерями
Размер потока : 246 Мбайт (16%)
Заголовок : [iTunes]
Язык : Russian
Default : Да
Forced : Нет

Меню
00:00:00.000 : en:Глава 1
00:10:00.000 : en:Глава 2
00:18:14.500 : en:Глава 3
00:26:52.333 : en:Глава 4
00:35:36.166 : en:Глава 5
00:43:44.291 : en:Глава 6
00:52:31.166 : en:Глава 7
01:00:54.666 : en:Глава 8
01:09:30.624 : en:Глава 9
01:17:36.249 : en:Глава 10
Источник http://BlaTor.org

Трекер:  [ 15-Дек-2018 09:50 ]

  

Скачать .torrent

Размер .torrent файла 15 KB


Размер: 1.46 GB
Хэш (hash) релиза: 25939b6178a631f5e1777c1ea55cc567ae9fb3dc
Подписка на обновления:

Торренты, похожие на Несокрушимый скачать торрент

Форум Название Автор Размер S L Добавлен
Российские фильмы 2016-2018 (Новинки русского кино) ·%· Несокрушимый (2018) WEB-DL 720p | iTunes Galfimbul 29579105072.75 GB 0 0 1545119437

10:50

18-Дек-18

Российские фильмы 2016-2018 (Новинки русского кино) ·%· Несокрушимый (2018) WEB-DLRip от Scarabey | iTunes Galfimbul 15525867521.45 GB 0 0 1545071440

21:30

17-Дек-18

Российские фильмы 2016-2018 (Новинки русского кино) ·%· Несокрушимый (2018) WEB-DLRip от Generalfilm | КПК | iTunes Galfimbul 357308630341 MB 0 0 1544947816

11:10

16-Дек-18

Российские фильмы 2016-2018 (Новинки русского кино) ·%· Несокрушимый (2018) WEB-DLRip-AVC от OlLanDGroup | iTunes Galfimbul 782535511746 MB 0 0 1544878264

15:51

15-Дек-18

Российские фильмы 2016-2018 (Новинки русского кино) ·%· Несокрушимый (2018) WEB-DLRip от GeneralFilm | iTunes Galfimbul 780521472744 MB 0 0 1544829011

02:10

15-Дек-18

Российские фильмы 2016-2018 (Новинки русского кино) ·%· Несокрушимый (2018) WEB-DLRip от MegaPeer | iTunes Galfimbul 15680245761.46 GB 0 0 1544824822

01:00

15-Дек-18

Российские фильмы 2016-2018 (Новинки русского кино) ·%· Несокрушимый (2018) WEB-DL 1080p | iTunes Galfimbul 33343392943.11 GB 0 0 1544824812

01:00

15-Дек-18

Азиатские фильмы ·· Невероятное приключение ДжоДжо: Несокрушимый алмаз часть 1 / JoJo's Bizarre Adventure: Diamond Is Unbreakable Chapter 1 (Такаси Миике / Takashi Miike) [2018, Япония, фэнтези, боевик, приключения, WEBRip-AVC] Sub rus + Original jpn Galfimbul 20542982581.91 GB 0 0 1528533007

11:30

9-Июн-18

Мультфильмы до 2016 ·· Несокрушимый Железный человек / The Invincible Iron Man (Патрик Арчибальд, Джей Олива) [1080p] [2007, фантастика, боевик, фэнтези, приключения, мультфильм, BDRip] Galfimbul 56203638495.23 GB 0 0 1502275005

13:36

9-Авг-17

Мультфильмы до 2016 ·· Несокрушимый Железный человек / The Invincible Iron Man (Патрик Арчибальд, Джей Олива) [2007, фантастика, боевик, фэнтези, приключения, мультфильм, BDRip 720p] Galfimbul 40733180873.79 GB 0 0 1502274999

13:36

9-Авг-17

Мультфильмы до 2016 ·· Норм и Несокрушимые / Norm of the North (Тревор Уолл / Trevor Wall) [2016, Индия, США, мультфильм, комедия, приключения, семейный, WEBRip 720p] (Локализованный видеоряд) DUB (iTunes) + UKR + Original (Eng) + Sub (rus, ukr, eng) Galfimbul 26238170362.44 GB 0 0 1500356190

08:36

18-Июл-17

Мультфильмы до 2016 ·· Норм и Несокрушимые / Norm of the North (Тревор Уолл / Trevor Wall) [2016, Индия, США, мультфильм, комедия, приключения, семейный, BDRip] Dub (iTunes) Galfimbul 780048384744 MB 0 0 1461822895

08:54

28-Апр-16

Мультфильмы до 2016 ·· Норм и Несокрушимые / Norm of the North (Тревор Уолл / Trevor Wall) [2016, Индия, США, мультфильм, комедия, приключения, семейный, BDRip-AVC] DUB (iTunes) + Original (Eng) + Sub (eng) Galfimbul 27730852702.58 GB 0 0 1461792563

00:29

28-Апр-16

Мультфильмы до 2016 ·· Норм и Несокрушимые / Norm of the North (Тревор Уолл) [2016, Индия, США, мультфильм, комедия, приключения, семейный, BDRip 1080p] Dub (iTunes) + Original Eng + Sub Eng Galfimbul 64934004186.05 GB 0 0 1461785094

22:24

27-Апр-16

Мультфильмы до 2016 ·· Норм и Несокрушимые / Norm of the North (Тревор Уолл / Trevor Wall) [2016, Индия, США, мультфильм, комедия, приключения, семейный, BDRip] Dub (iTunes) + Original Eng + Sub Eng Galfimbul 15674520801.46 GB 0 0 1461777736

20:22

27-Апр-16

Мультфильмы до 2016 ·· Норм и Несокрушимые / Norm of the North (Тревор Уолл / Trevor Wall) [2016, Индия, США, мультфильм, комедия, приключения, семейный, BDRip 720p] DUB (iTunes) + Original (Eng) + Sub (eng) Galfimbul 40233623083.75 GB 0 0 1461756879

14:34

27-Апр-16

Мультфильмы до 2016 ·· Норм и Несокрушимые / Norm of the North (Тревор Уолл / Trevor Wall) [2016, Индия, США, мультфильм, комедия, приключения, семейный, BDRemux 1080] DUB (iTunes) + Original (Eng) + Sub (eng) Galfimbul 1419464820413.22 GB 0 0 1461677211

16:26

26-Апр-16

Мультфильмы 2016-2018 (Новинки мультфильмов) ·· Норм и Несокрушимые / Norm of the North (2016) BDRip 720p | iTunes Galfimbul 24113175742.25 GB 0 0 1461445879

00:11

24-Апр-16

Мультфильмы до 2016 ·· Норм и Несокрушимые / Norm of the North (Тревор Уолл) [2016, Индия, США, мультфильм, комедия, приключения, семейный, BDRip 1080p] DUB + Original (Eng) Galfimbul 27327173302.55 GB 0 0 1461432701

20:31

23-Апр-16

Еще никто не оставлял запись к записи скачать торрент Несокрушимый . Будь первым!

!Обратная связь