Скачать через торрент Т-34 Фильм бесплатно в хорошем качестве torrent

Скачивайте на UnionPeer.org фильмы через торрент без регистрации. Новинки кино в хорошем качестве через торрент. На UnionPeer.org можно скачать через торрент фильмы 2014 и 2015 годов. Самые новые фильмы.

Скачать торрент Т-34 бесплатно через .torrent фильм мультфильм сериал

Статистика раздачи
Размер:  1.46 GB   |    Зарегистрирован:  1 месяц 4 дня   |    .torrent скачан:  152 раза   |   
Раздают:  1  
   
загрузка...
 
Автор Сообщение

Galfimbul

avatar Galfimbul


Т-34



[b]Год выпуска
: 2018
Жанр: драма, военный, приключения
Выпущено: Россия, АМЕДИА, Марс Медиа Энтертейнмент
Режиссер: Алексей Сидоров
В ролях: Александр Петров, Виктор Добронравов, Ирина Старшенбаум, Винценц Кифер, Петр Скворцов, Семен Трескунов, Артем Быстров, Антон Богданов, Василий Уриевский, Василий Буткевич

О фильме: Во времена величайших испытаний человечества, когда от каждого действия зависят жизни любимых, два заклятых врага начнут свое противостояние.
Оказавшись в плену, вчерашний курсант Ивушкин планирует дерзкий побег. Он собирает свой экипаж и на легендарной «тридцатьчетверке» бросает вызов немецким танковым асам во главе с Ягером. Ради своей любви и Родины он готов идти до конца.


Качество: WEBRip
Видео: XviD build 73, 720x304 (2.37:1), 30.000 fps, 1361 Kbps (0.207 bit/pixel)
Аудио: 48.0 kHz, MP3, 2/0 ch, 128 kbps
Продолжительность: 02:19:07
Перевод: Не требуется
Cубтитры: нет
General
Complete name : D:RazdachiT.34.2018.WEBRip.GeneralFilm.avi
Format : AVI
Format/Info : Audio Video Interleave
File size : 1.46 GiB
Duration : 2 h 19 min
Overall bit rate : 1 500 kb/s
Writing application : VirtualDubMod 1.5.10.3 | www.virtualdub-fr.org || (build 2550/release)
Writing library : VirtualDubMod build 2550/release

Video
ID : 0
Format : MPEG-4 Visual
Format profile : Advanced Simple@L5
Format settings : BVOP1 / Custom Matrix
Format settings, BVOP : 1
Format settings, QPel : No
Format settings, GMC : No warppoints
Format settings, Matrix : Custom
Codec ID : XVID
Codec ID/Hint : XviD
Duration : 2 h 19 min
Bit rate : 1 361 kb/s
Width : 720 pixels
Height : 304 pixels
Display aspect ratio : 2.35:1
Frame rate : 30.000 FPS
Color space : YUV
Chroma subsampling : 4:2:0
Bit depth : 8 bits
Scan type : Progressive
Compression mode : Lossy
Bits/(Pixel*Frame) : 0.207
Stream size : 1.32 GiB (91%)
Writing library : XviD 73

Audio
ID : 1
Format : MPEG Audio
Format version : Version 1
Format profile : Layer 3
Codec ID : 55
Codec ID/Hint : MP3
Duration : 2 h 19 min
Bit rate mode : Constant
Bit rate : 128 kb/s
Channel(s) : 2 channels
Sampling rate : 44.1 kHz
Frame rate : 38.281 FPS (1152 SPF)
Compression mode : Lossy
Stream size : 127 MiB (9%)
Alignment : Split accross interleaves
Interleave, duration : 33 ms (1.00 video frame)
Interleave, preload duratio : 500 ms
Writing library : LAME3.99r
Encoding settings : -m s -V 4 -q 2 -lowpass 17 -b 128
Релиз от:
Источник http://BlaTor.org

Трекер:  [ 15-Янв-2019 18:30 ]

  

Скачать .torrent

Размер .torrent файла 15 KB


Размер: 1.46 GB
Хэш (hash) релиза: 6db2cb267a5fd4907f397e3ef75b274d216e1058
Подписка на обновления:

Торренты, похожие на Т-34 скачать торрент

Форум Название Автор Размер S L Добавлен
Документальные фильмы и телепередачи ·· Т-34: Победа России / T-34: Russian Victory [2001, Документальный фильм, TVRip] Galfimbul 369548378352 MB 0 0 1498328037

21:13

24-Июн-17

Российские фильмы 2016-2018 (Новинки русского кино) ·%· Т-34 (2018) WEBRip 720p Galfimbul 35161833653.27 GB 0 0 1549255811

07:50

4-Фев-19

Российские фильмы 2016-2018 (Новинки русского кино) ·%· Т-34 (2018) WEBRip-AVC Galfimbul 22869815162.13 GB 0 0 1549211411

19:30

3-Фев-19

Российские фильмы 2016-2018 (Новинки русского кино) ·%· Т-34 (2018) WEBRip-AVC от ExKinoRay Galfimbul 11548191311.08 GB 0 0 1549037412

19:10

1-Фев-19

Российские фильмы 2016-2018 (Новинки русского кино) ·%· Т-34 (2018) WEBRip от GeneralFilm Galfimbul 15635189761.46 GB 0 0 1547581823

22:50

15-Янв-19

Российские фильмы 2016-2018 (Новинки русского кино) ·%· Т-34 (2018) WEBRip-AVC от Files-x Galfimbul 21949095022.04 GB 0 0 1547581813

22:50

15-Янв-19

Российские фильмы 2016-2018 (Новинки русского кино) ·%· Т-34 (2018) WEBRip от Generalfilm | КПК Galfimbul 554394910529 MB 0 0 1547575839

21:10

15-Янв-19

Российские фильмы 2016-2018 (Новинки русского кино) ·%· Т-34 (2018) WEB-DL 1080p Galfimbul 54398320225.07 GB 0 0 1547520615

05:50

15-Янв-19

Российские фильмы 2016-2018 (Новинки русского кино) ·%· Т-34 (2018) WEBRip от Dalemake Galfimbul 15704104961.46 GB 0 0 1547494227

22:30

14-Янв-19

Документальные фильмы и телепередачи ·· Танк Т-34 [2012, Документальный, вооружение, война, история, IPTVRip] Galfimbul 368562176351 MB 0 0 1418856034

01:40

18-Дек-14

Мультсериалы ·· Время Приключений / Adventure Time / Сезон: 7 / Серии: 1-34 из ?? (Ларри Лэйчлитер / Larry Leichliter) [2015-2016, фэнтези, комедия, приключения, WEB-DL 1080p] Dub + DVO (Ze6ypo) + VO (Т.О Друзей) + Original + Rus Sub Galfimbul 1647495158815.34 GB 0 0 1464151053

07:37

25-Май-16

Мультсериалы ·· Время Приключений / Adventure Time / Сезон: 7 / Серии: 1-34 из ?? (Ларри Лэйчлитер / Larry Leichliter) [2015-2016, фэнтези, комедия, приключения, WEB-DL 1080p] Dub + DVO (Ze6ypo) + VO (Т.О Друзей) + Original + Rus Sub Galfimbul 1644239883715.31 GB 0 0 1464003522

14:38

23-Май-16

Еще никто не оставлял запись к записи скачать торрент Т-34 . Будь первым!

!Обратная связь